#TITLE:10 Minutes;
#SUBTITLE:;
#ARTIST:Hyori Lee;
#TITLETRANSLIT:10 Minutes;
#SUBTITLETRANSLIT:;
#ARTISTTRANSLIT:Hyori Lee;
#CREDIT:;
#BANNER:10 Minutes-bn.png;
#BACKGROUND:10 Minutes-bg.png;
#LYRICSPATH:;
#CDTITLE:pm4cd.png;
#MUSIC:10 Minutes.mp3;
#OFFSET:0.040;
#SAMPLESTART:10.290;
#SAMPLELENGTH:20.000;
#SELECTABLE:YES;
#BPMS:0.000=96.340,46.750=200.500,50.750=96.340,246.750=48.080,262.750=96.340,292.750=200.500,296.750=96.340,326.750=200.500,330.750=96.340;
#STOPS:;
#BGCHANGES:;
// cache tags:
#FIRSTBEAT:0.750;
#LASTBEAT:363.000;
#SONGFILENAME:Songs/Music V.I.P ^_^/10 Minutes/10 Minutes.sm;
#HASMUSIC:1;
#HASBANNER:1;
#MUSICLENGTH:234.936;
// end cache tags

//---------------dance-single - ----------------
#NOTES:
     dance-single:
     :
     Hard:
     11:
     0.947,1.000,1.000,0.136,1.000,819.000,499.000,32.000,0.000,235.000:
0000
0000
0000
1110
0000
0011
0000
0000
0000
0000
0000
0000
0000
0000
0000
0000
,
0000
0101
0000
0111
0000
1100
0000
0000
0000
0000
0000
0000
0000
0000
0000
0000
,
0000
0000
0000
1011
0100
0001
0100
1011
0100
1000
0100
1011
0100
1000
0100
1011
,
0100
0001
0100
1011
0000
0000
0000
0100
0000
0010
0000
1000
0000
0100
0000
0010
,
0000
0001
0000
1111
0000
0001
0000
0011
0000
0100
0000
1010
0000
0010
0000
0110
,
0000
1010
0000
0011
0000
0010
0000
1010
0000
0100
0000
1001
0000
0110
0000
0011
,
0000
1010
0000
0111
0000
0010
0000
1100
0000
0100
0000
1101
0000
0010
0000
1001
,
0000
0100
0000
0111
0000
0010
0000
0011
0000
0100
0000
0101
0000
0110
0000
1100
,
0000
1001
0000
1011
0000
0100
0000
0101
0000
0010
0000
1100
0000
0001
0000
1001
,
0000
0100
0000
1110
0000
1000
0000
0101
0000
0010
0000
0110
0000
1001
0000
1010
,
0000
0100
0000
1101
0000
0010
0000
1011
0000
0010
0000
1101
0000
0100
0000
0111
,
0000
1000
0000
1011
0000
0010
0000
1110
0000
0001
0000
0121
0000
0000
0000
1101
,
0000
0000
0000
0000
0000
0000
0000
0000
0000
1101
0000
0000
0000
0000
0000
0000
0000
0000
0000
0000
0000
1101
0000
0000
0000
0000
0000
0000
0000
0000
0000
0000
0030
1111
0000
0000
0000
0000
0000
0000
0000
0000
0100
0000
0000
0010
0000
0000
,
0000
0100
0000
1000
0000
0100
0000
0011
0000
0000
0000
1001
0000
0100
0000
0101
,
0000
0010
0000
1100
0000
0110
0000
0011
0000
0110
0000
1100
0000
0100
0000
0011
,
0000
0010
0000
1100
0000
0001
0000
0101
0000
0010
0000
1100
0000
0001
0000
1001
,
0000
0100
0000
0101
0000
1010
0000
0201
0000
0010
0000
1311
0000
0100
0000
0101
,
0000
0001
0000
1010
0000
0100
0000
0011
0000
1000
0000
1101
0000
0100
0000
0101
,
0000
0010
0000
0011
0000
0110
0000
1100
0000
0010
0000
0101
0000
0001
0000
1001
,
0000
0100
0000
1100
0000
0010
0000
0110
0000
0001
0000
1010
0000
1000
0000
0101
,
0000
0010
0000
1100
0000
0110
0000
0101
0000
0010
0000
2001
0000
0100
0000
0101
,
0000
0010
0000
0110
0000
0001
0000
0011
0000
0100
0000
3201
0000
0010
0000
1010
,
0000
1000
0000
0011
0000
1010
0000
1001
0000
1010
0000
0321
0000
1000
0000
1100
,
0000
0100
0000
0101
0000
0001
0000
1001
0000
0100
0000
1032
0000
0100
0000
0110
,
0000
1000
0000
1100
0000
0110
0000
1103
0000
0010
0000
2101
0000
0001
0000
0110
,
0000
0100
0000
0101
0000
0010
0000
0011
0000
0100
0000
0101
0000
0010
0000
0110
,
0000
0001
0000
0101
0000
0110
0000
3101
0010
0001
0010
1001
0000
0000
0000
0100
,
1000
0100
1000
0101
0000
0010
0000
1100
0000
0000
0000
0110
0000
1000
0000
1100
,
0000
0010
0000
0101
0000
1010
0000
1001
0000
0110
0000
1111
0000
0100
0000
0101
,
0000
0010
0000
1100
0000
0100
0000
0101
0000
0010
0000
1110
0000
0100
0000
0101
,
0000
0010
0000
0011
0000
1010
0000
0101
0000
1000
0000
1110
0000
0100
0000
0011
,
0000
0010
0000
1011
0000
1000
0000
0101
0000
0010
0000
0111
0000
0001
0000
0110
,
0000
0100
0000
1100
0000
0110
0000
0011
0000
0110
0000
1101
0000
0010
0000
0101
,
0000
1000
0000
0011
0000
0100
0000
0101
0000
0010
0000
1110
0000
0010
0000
0011
,
0000
0001
0000
1010
0000
0101
0000
1001
0000
0110
0000
0111
0000
0100
0000
1110
,
0000
0010
0000
1011
0000
0100
1000
0101
0000
0010
0000
1100
0000
0001
0000
0110
,
0000
0100
0000
0211
0000
1000
0000
1001
0000
0010
0000
1310
0000
0000
0000
0000
,
0000
0000
0000
0000
0000
1010
0000
0101
0000
1010
0000
1111
0000
0100
0000
0001
,
0000
0010
0000
1000
0000
0000
0000
0011
0000
0100
0000
1101
0000
0010
0000
0101
,
0000
1000
0000
1100
0000
1001
0000
0101
0000
0010
0000
1100
0000
0001
0000
1001
,
0000
0100
0000
0101
0000
0010
0000
1100
0000
0001
0000
1001
0000
0100
0000
0011
,
0000
0100
0000
1010
0000
0110
0000
0101
0000
0110
0000
1210
0000
0001
0000
0011
,
0000
0010
0000
1310
0000
1000
0000
0110
0000
0010
0000
0011
0000
0100
0000
1010
,
0000
1000
0000
1001
0000
0110
0000
1001
0000
0011
0000
1101
0000
0010
0000
1011
,
0000
0100
0000
1101
0000
0010
0000
0111
0000
0100
0000
1110
0000
0100
0000
0111
,
0000
1000
0000
0101
0000
0001
0010
1100
0000
0100
0010
1101
0000
0010
0000
0101
,
0000
0010
0000
1100
0000
0001
0000
1010
0000
0100
0000
0011
0000
1000
0000
0101
,
0000
0010
0000
1100
0000
0110
0000
0101
0000
0010
0000
1100
0000
0001
0000
1001
,
0000
0100
0000
0011
0000
0100
0000
1010
0000
1000
0000
1001
0000
0100
0000
0011
,
0000
1100
0010
1001
0000
0011
0100
1001
0000
0101
0010
1101
0000
0010
0000
1100
,
0000
0001
0000
1010
0000
0100
0000
0011
0000
1000
0000
0110
0000
0010
0000
0101
,
0000
0010
0000
1100
0000
0110
0000
0011
0000
0110
0000
0011
0000
1000
0000
0101
,
0000
1000
0000
1010
0000
0100
0000
1001
0000
0100
0000
1011
0000
1101
0000
1011
,
0000
1101
0000
0111
0000
1110
0000
0111
0000
1110
0000
1111
0000
0011
0000
0110
,
0000
1100
0000
0110
0000
1001
0000
1010
0000
0101
0000
1010
0000
0011
0000
0110
,
0000
0011
0000
1110
0000
0111
0000
1110
0000
1010
0000
1101
0000
0101
0000
1011
,
0000
0101
0000
0111
0000
1010
0000
1100
0000
1001
0000
1110
0000
0011
1000
0110
,
0000
1100
0000
1011
0000
1101
0000
1110
0000
0011
0000
0111
0000
1100
0000
0101
,
0000
1010
0000
0011
0000
1100
0000
1001
0000
0101
0000
0011
0000
1001
0000
1010
,
0000
1100
0000
0111
0000
1101
0000
0111
0000
1010
0000
1101
0000
1010
0000
1101
,
0000
0011
0000
1011
0000
0011
0000
1011
0000
1100
0000
1010
0000
0101
0000
1001
,
0000
0011
0001
0101
0000
1100
0010
1010
0000
0110
0100
2100
0010
0100
0001
0010
,
0101
0000
0000
3011
0000
0000
0102
0000
0010
0000
1010
0000
0100
0000
0010
0000
1100
0000
0000
0113
0000
0000
0210
0000
1000
0000
0010
0000
0011
0000
0010
0000
,
1010
0000
0000
0311
0000
0000
1020
0000
0100
0000
0001
0000
1100
0100
1000
0000
2230
0001
0011
0001
0010
0001
3311
0000
1000
0000
0101
0000
0010
0000
1100
0000
,
0110
0000
0101
0010
1100
0000
0011
0100
1000
0000
1001
0000
0010
0000
1100
0000
0101
0000
1010
0100
0011
0000
0111
0000
0100
0000
0101
0000
1100
0000
1010
0000
,
1001
0000
1100
0010
0101
0000
1110
0000
0111
0010
1101
0000
1011
0000
1101
0000
0111
0000
1110
0000
0111
0000
1111
0000
0000
0000
2000
0000
0000
0000
3200
0000
,
0000
0320
0000
0032
0000
0003
0000
2000
3000
1110
0000
1111
0000
0002
0000
0023
,
0000
0230
0000
2300
0000
3000
0000
0002
0000
0203
0300
1111
0000
0000
0000
2000
,
0000
3020
0030
1111
0000
0000
0000
0200
0000
2300
3000
1111
0000
1100
0110
1111
,
0000
0011
0110
1111
0000
0110
1001
1111
0000
0101
1010
1111
0000
1100
0000
0110
,
0000
0011
0000
1110
0000
0011
0000
1001
0000
1010
0000
0111
0000
1100
0000
1001
,
0000
0110
0000
1101
0000
0111
0000
1011
0000
1100
0000
0111
0000
1100
0000
1110
,
0000
0101
0000
1011
0000
1100
0000
1101
0000
0011
0000
1110
0000
1001
0000
0110
,
0000
1010
0100
1021
0000
0000
0000
0101
0000
0000
0000
1101
0000
0000
0000
1100
,
0000
0000
0000
1131
0000
0111
0000
1110
0000
1101
0000
1011
0000
1110
0000
1011
,
0000
1110
0000
1101
0000
0111
0000
1101
0000
1011
0000
1101
0000
1110
0000
0111
,
0000
1110
0000
1011
0000
1101
0000
0111
0000
1011
0000
1101
0000
1110
0000
1011
,
0000
1101
0000
1011
0000
0111
0000
1110
0000
1101
0000
1011
0000
1110
0000
0111
,
0000
1110
0000
1111
0000
1101
0000
0111
0000
1011
0000
1110
0000
0111
0000
1101
,
0000
1011
0000
1110
0000
1011
0000
1110
0000
1011
0000
1101
0000
0111
0000
1101
,
0000
1011
0000
1111
0000
1101
0000
1111
0000
1011
0000
1111
0000
1110
0000
1111
,
0000
0111
0000
1111
0000
1101
0000
1011
0000
1110
0000
0112
0000
0000
0000
1110
,
0000
0000
0000
0000
0000
0000
0000
0000
0000
1010
0000
0000
0000
0000
0000
0000
0000
0000
0000
0000
0000
1110
0000
0000
0000
0000
0000
0000
0000
0000
0000
0000
0003
1111
0000
0000
0100
0000
0000
1000
0000
0000
0100
0000
0000
1100
0000
0000
,
1000
0100
0010
0101
1000
0010
1000
1100
0100
0010
0001
0101
0010
0100
1000
0110
,
0010
0100
1000
1010
0100
1010
0001
0011
0001
0010
0100
1010
0100
0010
0001
1001
,
0100
0010
1000
0101
0010
0100
1000
1100
0100
0010
0001
0110
0010
0100
1000
0101
,
0010
0100
0001
1100
0010
1001
0100
0011
1000
0001
0100
1111
1000
0100
0010
1101
,
0010
0001
0100
1011
0001
0010
0100
1110
1000
0100
0010
0111
0010
0100
0010
1110
,
0001
0010
0100
1011
0100
1010
0001
1101
0001
0010
0001
1110
1000
0100
0010
1101
,
0001
0010
0001
0111
0010
0100
0001
1101
0010
1100
0010
1011
1000
0100
0001
1110
,
0001
0110
1000
0111
1000
0101
0010
1100
0001
1010
0100
0011
1000
0000
0000
0000
;

//---------------dance-single - ----------------
#NOTES:
     dance-single:
     :
     Medium:
     11:
     0.947,1.000,1.000,0.136,1.000,819.000,499.000,32.000,0.000,235.000:
0000
0000
0000
1110
0000
0011
0000
0000
0000
0000
0000
0000
0000
0000
0000
0000
,
0000
0101
0000
0111
0000
1100
0000
0000
0000
0000
0000
0000
0000
0000
0000
0000
,
0000
0000
0000
1011
0100
0001
0100
1011
0100
1000
0100
1011
0100
1000
0100
1011
,
0100
0001
0100
1011
0000
0000
0000
0100
0000
0010
0000
1000
0000
0100
0000
0010
,
0000
0001
0000
1111
0000
0001
0000
0011
0000
0100
0000
1010
0000
0010
0000
0110
,
0000
1010
0000
0011
0000
0010
0000
1010
0000
0100
0000
1001
0000
0110
0000
0011
,
0000
1010
0000
0111
0000
0010
0000
1100
0000
0100
0000
1101
0000
0010
0000
1001
,
0000
0100
0000
0111
0000
0010
0000
0011
0000
0100
0000
0101
0000
0110
0000
1100
,
0000
1001
0000
1011
0000
0100
0000
0101
0000
0010
0000
1100
0000
0001
0000
1001
,
0000
0100
0000
1110
0000
1000
0000
0101
0000
0010
0000
0110
0000
1001
0000
1010
,
0000
0100
0000
1101
0000
0010
0000
1011
0000
0010
0000
1101
0000
0100
0000
0111
,
0000
1000
0000
1011
0000
0010
0000
1110
0000
0001
0000
0121
0000
0000
0000
1101
,
0000
0000
0000
0000
0000
0000
0000
0000
0000
1101
0000
0000
0000
0000
0000
0000
0000
0000
0000
0000
0000
1101
0000
0000
0000
0000
0000
0000
0000
0000
0000
0000
0030
1111
0000
0000
0000
0000
0000
0000
0000
0000
0100
0000
0000
0010
0000
0000
,
0000
0100
0000
1000
0000
0100
0000
0011
0000
0000
0000
1001
0000
0100
0000
0101
,
0000
0010
0000
1100
0000
0110
0000
0011
0000
0110
0000
1100
0000
0100
0000
0011
,
0000
0010
0000
1100
0000
0001
0000
0101
0000
0010
0000
1100
0000
0001
0000
1001
,
0000
0100
0000
0101
0000
1010
0000
0201
0000
0010
0000
1311
0000
0100
0000
0101
,
0000
0001
0000
1010
0000
0100
0000
0011
0000
1000
0000
1101
0000
0100
0000
0101
,
0000
0010
0000
0011
0000
0110
0000
1100
0000
0010
0000
0101
0000
0001
0000
1001
,
0000
0100
0000
1100
0000
0010
0000
0110
0000
0001
0000
1010
0000
1000
0000
0101
,
0000
0010
0000
1100
0000
0110
0000
0101
0000
0010
0000
2001
0000
0100
0000
0101
,
0000
0010
0000
0110
0000
0001
0000
0011
0000
0100
0000
3201
0000
0010
0000
1010
,
0000
1000
0000
0011
0000
1010
0000
1001
0000
1010
0000
0321
0000
1000
0000
1100
,
0000
0100
0000
0101
0000
0001
0000
1001
0000
0100
0000
1032
0000
0100
0000
0110
,
0000
1000
0000
1100
0000
0110
0000
1103
0000
0010
0000
2101
0000
0001
0000
0110
,
0000
0100
0000
0101
0000
0010
0000
0011
0000
0100
0000
0101
0000
0010
0000
0110
,
0000
0001
0000
0101
0000
0110
0000
3101
0010
0001
0010
1001
0000
0000
0000
0100
,
1000
0100
1000
0101
0000
0010
0000
1100
0000
0000
0000
0110
0000
1000
0000
1100
,
0000
0010
0000
0101
0000
1010
0000
1001
0000
0110
0000
1111
0000
0100
0000
0101
,
0000
0010
0000
1100
0000
0100
0000
0101
0000
0010
0000
1110
0000
0100
0000
0101
,
0000
0010
0000
0011
0000
1010
0000
0101
0000
1000
0000
1110
0000
0100
0000
0011
,
0000
0010
0000
1011
0000
1000
0000
0101
0000
0010
0000
0111
0000
0001
0000
0110
,
0000
0100
0000
1100
0000
0110
0000
0011
0000
0110
0000
1101
0000
0010
0000
0101
,
0000
1000
0000
0011
0000
0100
0000
0101
0000
0010
0000
1110
0000
0010
0000
0011
,
0000
0001
0000
1010
0000
0101
0000
1001
0000
0110
0000
0111
0000
0100
0000
1110
,
0000
0010
0000
1011
0000
0100
1000
0101
0000
0010
0000
1100
0000
0001
0000
0110
,
0000
0100
0000
0211
0000
1000
0000
1001
0000
0010
0000
1310
0000
0000
0000
0000
,
0000
0000
0000
0000
0000
1010
0000
0101
0000
1010
0000
1111
0000
0100
0000
0001
,
0000
0010
0000
1000
0000
0000
0000
0011
0000
0100
0000
1101
0000
0010
0000
0101
,
0000
1000
0000
1100
0000
1001
0000
0101
0000
0010
0000
1100
0000
0001
0000
1001
,
0000
0100
0000
0101
0000
0010
0000
1100
0000
0001
0000
1001
0000
0100
0000
0011
,
0000
0100
0000
1010
0000
0110
0000
0101
0000
0110
0000
1210
0000
0001
0000
0011
,
0000
0010
0000
1310
0000
1000
0000
0110
0000
0010
0000
0011
0000
0100
0000
1010
,
0000
1000
0000
1001
0000
0110
0000
1001
0000
0011
0000
1101
0000
0010
0000
1011
,
0000
0100
0000
1101
0000
0010
0000
0111
0000
0100
0000
1110
0000
0100
0000
0111
,
0000
1000
0000
0101
0000
0001
0010
1100
0000
0100
0010
1101
0000
0010
0000
0101
,
0000
0010
0000
1100
0000
0001
0000
1010
0000
0100
0000
0011
0000
1000
0000
0101
,
0000
0010
0000
1100
0000
0110
0000
0101
0000
0010
0000
1100
0000
0001
0000
1001
,
0000
0100
0000
0011
0000
0100
0000
1010
0000
1000
0000
1001
0000
0100
0000
0011
,
0000
1100
0010
1001
0000
0011
0100
1001
0000
0101
0010
1101
0000
0010
0000
1100
,
0000
0001
0000
1010
0000
0100
0000
0011
0000
1000
0000
0110
0000
0010
0000
0101
,
0000
0010
0000
1100
0000
0110
0000
0011
0000
0110
0000
0011
0000
1000
0000
0101
,
0000
1000
0000
1010
0000
0100
0000
1001
0000
0100
0000
1011
0000
1101
0000
1011
,
0000
1101
0000
0111
0000
1110
0000
0111
0000
1110
0000
1111
0000
0011
0000
0110
,
0000
1100
0000
0110
0000
1001
0000
1010
0000
0101
0000
1010
0000
0011
0000
0110
,
0000
0011
0000
1110
0000
0111
0000
1110
0000
1010
0000
1101
0000
0101
0000
1011
,
0000
0101
0000
0111
0000
1010
0000
1100
0000
1001
0000
1110
0000
0011
1000
0110
,
0000
1100
0000
1011
0000
1101
0000
1110
0000
0011
0000
0111
0000
1100
0000
0101
,
0000
1010
0000
0011
0000
1100
0000
1001
0000
0101
0000
0011
0000
1001
0000
1010
,
0000
1100
0000
0111
0000
1101
0000
0111
0000
1010
0000
1101
0000
1010
0000
1101
,
0000
0011
0000
1011
0000
0011
0000
1011
0000
1100
0000
1010
0000
0101
0000
1001
,
0000
0011
0001
0101
0000
1100
0010
1010
0000
0110
0100
2100
0010
0100
0001
0010
,
0101
0000
0000
3011
0000
0000
0102
0000
0010
0000
1010
0000
0100
0000
0010
0000
1100
0000
0000
0113
0000
0000
0210
0000
1000
0000
0010
0000
0011
0000
0010
0000
,
1010
0000
0000
0311
0000
0000
1020
0000
0100
0000
0001
0000
1100
0100
1000
0000
2230
0001
0011
0001
0010
0001
3311
0000
1000
0000
0101
0000
0010
0000
1100
0000
,
0110
0000
0101
0010
1100
0000
0011
0100
1000
0000
1001
0000
0010
0000
1100
0000
0101
0000
1010
0100
0011
0000
0111
0000
0100
0000
0101
0000
1100
0000
1010
0000
,
1001
0000
1100
0010
0101
0000
1110
0000
0111
0010
1101
0000
1011
0000
1101
0000
0111
0000
1110
0000
0111
0000
1111
0000
0000
0000
2000
0000
0000
0000
3200
0000
,
0000
0320
0000
0032
0000
0003
0000
2000
3000
1110
0000
1111
0000
0002
0000
0023
,
0000
0230
0000
2300
0000
3000
0000
0002
0000
0203
0300
1111
0000
0000
0000
2000
,
0000
3020
0030
1111
0000
0000
0000
0200
0000
2300
3000
1111
0000
1100
0110
1111
,
0000
0011
0110
1111
0000
0110
1001
1111
0000
0101
1010
1111
0000
1100
0000
0110
,
0000
0011
0000
1110
0000
0011
0000
1001
0000
1010
0000
0111
0000
1100
0000
1001
,
0000
0110
0000
1101
0000
0111
0000
1011
0000
1100
0000
0111
0000
1100
0000
1110
,
0000
0101
0000
1011
0000
1100
0000
1101
0000
0011
0000
1110
0000
1001
0000
0110
,
0000
1010
0100
1021
0000
0000
0000
0101
0000
0000
0000
1101
0000
0000
0000
1100
,
0000
0000
0000
1131
0000
0111
0000
1110
0000
1101
0000
1011
0000
1110
0000
1011
,
0000
1110
0000
1101
0000
0111
0000
1101
0000
1011
0000
1101
0000
1110
0000
0111
,
0000
1110
0000
1011
0000
1101
0000
0111
0000
1011
0000
1101
0000
1110
0000
1011
,
0000
1101
0000
1011
0000
0111
0000
1110
0000
1101
0000
1011
0000
1110
0000
0111
,
0000
1110
0000
1111
0000
1101
0000
0111
0000
1011
0000
1110
0000
0111
0000
1101
,
0000
1011
0000
1110
0000
1011
0000
1110
0000
1011
0000
1101
0000
0111
0000
1101
,
0000
1011
0000
1111
0000
1101
0000
1111
0000
1011
0000
1111
0000
1110
0000
1111
,
0000
0111
0000
1111
0000
1101
0000
1011
0000
1110
0000
0112
0000
0000
0000
1110
,
0000
0000
0000
0000
0000
0000
0000
0000
0000
1010
0000
0000
0000
0000
0000
0000
0000
0000
0000
0000
0000
1110
0000
0000
0000
0000
0000
0000
0000
0000
0000
0000
0003
1111
0000
0000
0100
0000
0000
1000
0000
0000
0100
0000
0000
1100
0000
0000
,
1000
0100
0010
0101
1000
0010
1000
1100
0100
0010
0001
0101
0010
0100
1000
0110
,
0010
0100
1000
1010
0100
1010
0001
0011
0001
0010
0100
1010
0100
0010
0001
1001
,
0100
0010
1000
0101
0010
0100
1000
1100
0100
0010
0001
0110
0010
0100
1000
0101
,
0010
0100
0001
1100
0010
1001
0100
0011
1000
0001
0100
1111
1000
0100
0010
1101
,
0010
0001
0100
1011
0001
0010
0100
1110
1000
0100
0010
0111
0010
0100
0010
1110
,
0001
0010
0100
1011
0100
1010
0001
1101
0001
0010
0001
1110
1000
0100
0010
1101
,
0001
0010
0001
0111
0010
0100
0001
1101
0010
1100
0010
1011
1000
0100
0001
1110
,
0001
0110
1000
0111
1000
0101
0010
1100
0001
1010
0100
0011
1000
0000
0000
0000
;

//---------------dance-single - Copied from----------------
#NOTES:
     dance-single:
     Copied from:
     Easy:
     11:
     0.947,1.000,1.000,0.136,1.000,819.000,499.000,32.000,0.000,235.000:
0000
0000
0000
1110
0000
0011
0000
0000
0000
0000
0000
0000
0000
0000
0000
0000
,
0000
0101
0000
0111
0000
1100
0000
0000
0000
0000
0000
0000
0000
0000
0000
0000
,
0000
0000
0000
1011
0100
0001
0100
1011
0100
1000
0100
1011
0100
1000
0100
1011
,
0100
0001
0100
1011
0000
0000
0000
0100
0000
0010
0000
1000
0000
0100
0000
0010
,
0000
0001
0000
1111
0000
0001
0000
0011
0000
0100
0000
1010
0000
0010
0000
0110
,
0000
1010
0000
0011
0000
0010
0000
1010
0000
0100
0000
1001
0000
0110
0000
0011
,
0000
1010
0000
0111
0000
0010
0000
1100
0000
0100
0000
1101
0000
0010
0000
1001
,
0000
0100
0000
0111
0000
0010
0000
0011
0000
0100
0000
0101
0000
0110
0000
1100
,
0000
1001
0000
1011
0000
0100
0000
0101
0000
0010
0000
1100
0000
0001
0000
1001
,
0000
0100
0000
1110
0000
1000
0000
0101
0000
0010
0000
0110
0000
1001
0000
1010
,
0000
0100
0000
1101
0000
0010
0000
1011
0000
0010
0000
1101
0000
0100
0000
0111
,
0000
1000
0000
1011
0000
0010
0000
1110
0000
0001
0000
0121
0000
0000
0000
1101
,
0000
0000
0000
0000
0000
0000
0000
0000
0000
1101
0000
0000
0000
0000
0000
0000
0000
0000
0000
0000
0000
1101
0000
0000
0000
0000
0000
0000
0000
0000
0000
0000
0030
1111
0000
0000
0000
0000
0000
0000
0000
0000
0100
0000
0000
0010
0000
0000
,
0000
0100
0000
1000
0000
0100
0000
0011
0000
0000
0000
1001
0000
0100
0000
0101
,
0000
0010
0000
1100
0000
0110
0000
0011
0000
0110
0000
1100
0000
0100
0000
0011
,
0000
0010
0000
1100
0000
0001
0000
0101
0000
0010
0000
1100
0000
0001
0000
1001
,
0000
0100
0000
0101
0000
1010
0000
0201
0000
0010
0000
1311
0000
0100
0000
0101
,
0000
0001
0000
1010
0000
0100
0000
0011
0000
1000
0000
1101
0000
0100
0000
0101
,
0000
0010
0000
0011
0000
0110
0000
1100
0000
0010
0000
0101
0000
0001
0000
1001
,
0000
0100
0000
1100
0000
0010
0000
0110
0000
0001
0000
1010
0000
1000
0000
0101
,
0000
0010
0000
1100
0000
0110
0000
0101
0000
0010
0000
2001
0000
0100
0000
0101
,
0000
0010
0000
0110
0000
0001
0000
0011
0000
0100
0000
3201
0000
0010
0000
1010
,
0000
1000
0000
0011
0000
1010
0000
1001
0000
1010
0000
0321
0000
1000
0000
1100
,
0000
0100
0000
0101
0000
0001
0000
1001
0000
0100
0000
1032
0000
0100
0000
0110
,
0000
1000
0000
1100
0000
0110
0000
1103
0000
0010
0000
2101
0000
0001
0000
0110
,
0000
0100
0000
0101
0000
0010
0000
0011
0000
0100
0000
0101
0000
0010
0000
0110
,
0000
0001
0000
0101
0000
0110
0000
3101
0010
0001
0010
1001
0000
0000
0000
0100
,
1000
0100
1000
0101
0000
0010
0000
1100
0000
0000
0000
0110
0000
1000
0000
1100
,
0000
0010
0000
0101
0000
1010
0000
1001
0000
0110
0000
1111
0000
0100
0000
0101
,
0000
0010
0000
1100
0000
0100
0000
0101
0000
0010
0000
1110
0000
0100
0000
0101
,
0000
0010
0000
0011
0000
1010
0000
0101
0000
1000
0000
1110
0000
0100
0000
0011
,
0000
0010
0000
1011
0000
1000
0000
0101
0000
0010
0000
0111
0000
0001
0000
0110
,
0000
0100
0000
1100
0000
0110
0000
0011
0000
0110
0000
1101
0000
0010
0000
0101
,
0000
1000
0000
0011
0000
0100
0000
0101
0000
0010
0000
1110
0000
0010
0000
0011
,
0000
0001
0000
1010
0000
0101
0000
1001
0000
0110
0000
0111
0000
0100
0000
1110
,
0000
0010
0000
1011
0000
0100
1000
0101
0000
0010
0000
1100
0000
0001
0000
0110
,
0000
0100
0000
0211
0000
1000
0000
1001
0000
0010
0000
1310
0000
0000
0000
0000
,
0000
0000
0000
0000
0000
1010
0000
0101
0000
1010
0000
1111
0000
0100
0000
0001
,
0000
0010
0000
1000
0000
0000
0000
0011
0000
0100
0000
1101
0000
0010
0000
0101
,
0000
1000
0000
1100
0000
1001
0000
0101
0000
0010
0000
1100
0000
0001
0000
1001
,
0000
0100
0000
0101
0000
0010
0000
1100
0000
0001
0000
1001
0000
0100
0000
0011
,
0000
0100
0000
1010
0000
0110
0000
0101
0000
0110
0000
1210
0000
0001
0000
0011
,
0000
0010
0000
1310
0000
1000
0000
0110
0000
0010
0000
0011
0000
0100
0000
1010
,
0000
1000
0000
1001
0000
0110
0000
1001
0000
0011
0000
1101
0000
0010
0000
1011
,
0000
0100
0000
1101
0000
0010
0000
0111
0000
0100
0000
1110
0000
0100
0000
0111
,
0000
1000
0000
0101
0000
0001
0010
1100
0000
0100
0010
1101
0000
0010
0000
0101
,
0000
0010
0000
1100
0000
0001
0000
1010
0000
0100
0000
0011
0000
1000
0000
0101
,
0000
0010
0000
1100
0000
0110
0000
0101
0000
0010
0000
1100
0000
0001
0000
1001
,
0000
0100
0000
0011
0000
0100
0000
1010
0000
1000
0000
1001
0000
0100
0000
0011
,
0000
1100
0010
1001
0000
0011
0100
1001
0000
0101
0010
1101
0000
0010
0000
1100
,
0000
0001
0000
1010
0000
0100
0000
0011
0000
1000
0000
0110
0000
0010
0000
0101
,
0000
0010
0000
1100
0000
0110
0000
0011
0000
0110
0000
0011
0000
1000
0000
0101
,
0000
1000
0000
1010
0000
0100
0000
1001
0000
0100
0000
1011
0000
1101
0000
1011
,
0000
1101
0000
0111
0000
1110
0000
0111
0000
1110
0000
1111
0000
0011
0000
0110
,
0000
1100
0000
0110
0000
1001
0000
1010
0000
0101
0000
1010
0000
0011
0000
0110
,
0000
0011
0000
1110
0000
0111
0000
1110
0000
1010
0000
1101
0000
0101
0000
1011
,
0000
0101
0000
0111
0000
1010
0000
1100
0000
1001
0000
1110
0000
0011
1000
0110
,
0000
1100
0000
1011
0000
1101
0000
1110
0000
0011
0000
0111
0000
1100
0000
0101
,
0000
1010
0000
0011
0000
1100
0000
1001
0000
0101
0000
0011
0000
1001
0000
1010
,
0000
1100
0000
0111
0000
1101
0000
0111
0000
1010
0000
1101
0000
1010
0000
1101
,
0000
0011
0000
1011
0000
0011
0000
1011
0000
1100
0000
1010
0000
0101
0000
1001
,
0000
0011
0001
0101
0000
1100
0010
1010
0000
0110
0100
2100
0010
0100
0001
0010
,
0101
0000
0000
3011
0000
0000
0102
0000
0010
0000
1010
0000
0100
0000
0010
0000
1100
0000
0000
0113
0000
0000
0210
0000
1000
0000
0010
0000
0011
0000
0010
0000
,
1010
0000
0000
0311
0000
0000
1020
0000
0100
0000
0001
0000
1100
0100
1000
0000
2230
0001
0011
0001
0010
0001
3311
0000
1000
0000
0101
0000
0010
0000
1100
0000
,
0110
0000
0101
0010
1100
0000
0011
0100
1000
0000
1001
0000
0010
0000
1100
0000
0101
0000
1010
0100
0011
0000
0111
0000
0100
0000
0101
0000
1100
0000
1010
0000
,
1001
0000
1100
0010
0101
0000
1110
0000
0111
0010
1101
0000
1011
0000
1101
0000
0111
0000
1110
0000
0111
0000
1111
0000
0000
0000
2000
0000
0000
0000
3200
0000
,
0000
0320
0000
0032
0000
0003
0000
2000
3000
1110
0000
1111
0000
0002
0000
0023
,
0000
0230
0000
2300
0000
3000
0000
0002
0000
0203
0300
1111
0000
0000
0000
2000
,
0000
3020
0030
1111
0000
0000
0000
0200
0000
2300
3000
1111
0000
1100
0110
1111
,
0000
0011
0110
1111
0000
0110
1001
1111
0000
0101
1010
1111
0000
1100
0000
0110
,
0000
0011
0000
1110
0000
0011
0000
1001
0000
1010
0000
0111
0000
1100
0000
1001
,
0000
0110
0000
1101
0000
0111
0000
1011
0000
1100
0000
0111
0000
1100
0000
1110
,
0000
0101
0000
1011
0000
1100
0000
1101
0000
0011
0000
1110
0000
1001
0000
0110
,
0000
1010
0100
1021
0000
0000
0000
0101
0000
0000
0000
1101
0000
0000
0000
1100
,
0000
0000
0000
1131
0000
0111
0000
1110
0000
1101
0000
1011
0000
1110
0000
1011
,
0000
1110
0000
1101
0000
0111
0000
1101
0000
1011
0000
1101
0000
1110
0000
0111
,
0000
1110
0000
1011
0000
1101
0000
0111
0000
1011
0000
1101
0000
1110
0000
1011
,
0000
1101
0000
1011
0000
0111
0000
1110
0000
1101
0000
1011
0000
1110
0000
0111
,
0000
1110
0000
1111
0000
1101
0000
0111
0000
1011
0000
1110
0000
0111
0000
1101
,
0000
1011
0000
1110
0000
1011
0000
1110
0000
1011
0000
1101
0000
0111
0000
1101
,
0000
1011
0000
1111
0000
1101
0000
1111
0000
1011
0000
1111
0000
1110
0000
1111
,
0000
0111
0000
1111
0000
1101
0000
1011
0000
1110
0000
0112
0000
0000
0000
1110
,
0000
0000
0000
0000
0000
0000
0000
0000
0000
1010
0000
0000
0000
0000
0000
0000
0000
0000
0000
0000
0000
1110
0000
0000
0000
0000
0000
0000
0000
0000
0000
0000
0003
1111
0000
0000
0100
0000
0000
1000
0000
0000
0100
0000
0000
1100
0000
0000
,
1000
0100
0010
0101
1000
0010
1000
1100
0100
0010
0001
0101
0010
0100
1000
0110
,
0010
0100
1000
1010
0100
1010
0001
0011
0001
0010
0100
1010
0100
0010
0001
1001
,
0100
0010
1000
0101
0010
0100
1000
1100
0100
0010
0001
0110
0010
0100
1000
0101
,
0010
0100
0001
1100
0010
1001
0100
0011
1000
0001
0100
1111
1000
0100
0010
1101
,
0010
0001
0100
1011
0001
0010
0100
1110
1000
0100
0010
0111
0010
0100
0010
1110
,
0001
0010
0100
1011
0100
1010
0001
1101
0001
0010
0001
1110
1000
0100
0010
1101
,
0001
0010
0001
0111
0010
0100
0001
1101
0010
1100
0010
1011
1000
0100
0001
1110
,
0001
0110
1000
0111
1000
0101
0010
1100
0001
1010
0100
0011
1000
0000
0000
0000
;
